Título: Bajo cero
Título original: Frozen
País: USA
Estreno en USA: 05/02/2010
Estreno en España:
Lanzamiento en DVD (alquiler): 31/08/2011
Estreno en DVD (venta): 05/10/2011
Productora: Anchor Bay Films
Director: Adam Green
Guión: Adam Green
Reparto: Kevin Zegers, Emma Bell, Shawn Ashmore


Sinopsis: Cuenta cómo tres estudiantes universitarios disfrutan de su último día de vacaciones en la nieve.
Sin embargo, el último día se quedarán atrapados en la montaña y deberán hacer todo lo posible por sobrevivir contra los enemigos: el frío, el viento, la lluvia, la nieve y la altitud.






código:
General
Complete name                    : E:\bajo Evilsega.avi
Format                           : AVI
Format/Info                      : Audio Video Interleave
File size                        : 1.41 GiB
Duration                         : 1h 33mn
Overall bit rate                 : 2 168 Kbps
Writing application              : VirtualDubMod 1.5.10.2 (build 2540/release)
Writing library                  : VirtualDubMod build 2540/release

Video
ID                               : 0
Format                           : MPEG-4 Visual
Format profile                   : Advanced Simple@L5
Format settings, BVOP            : 4
Format settings, QPel            : No
Format settings, GMC             : No warppoints
Format settings, Matrix          : Custom
Codec ID                         : XVID
Codec ID/Hint                    : XviD
Duration                         : 1h 33mn
Bit rate                         : 1 775 Kbps
Width                            : 720 pixels
Height                           : 304 pixels
Display aspect ratio             : 2.35:1
Frame rate                       : 23.976 fps
Color space                      : YUV
Chroma subsampling               : 4:2:0
Bit depth                        : 8 bits
Scan type                        : Progressive
Compression mode                 : Lossy
Bits/(Pixel*Frame)               : 0.338
Stream size                      : 1.16 GiB (82%)
Writing library                  : XviD 1.2.1 (UTC 2008-12-04)

Audio
ID                               : 1
Format                           : AC-3
Format/Info                      : Audio Coding 3
Mode extension                   : CM (complete main)
Codec ID                         : 2000
Duration                         : 1h 33mn
Bit rate mode                    : Constant
Bit rate                         : 384 Kbps
Channel(s)                       : 6 channels
Channel positions                : Front: L C R, Side: L R, LFE
Sampling rate                    : 48.0 KHz
Bit depth                        : 16 bits
Compression mode                 : Lossy
Stream size                      : 256 MiB (18%)
Alignment                        : Split accross interleaves
Interleave, duration             : 42 ms (1.00 video frame)
Interleave, preload duration     : 500 ms










Get bajo Evilsega.part4.rar on Wupload.com Evilsega.part4.rar
Get bajo Evilsega.part2.rar on Wupload.com Evilsega.part2.rar
Get bajo Evilsega.part3.rar on Wupload.com Evilsega.part3.rar
Get bajo Evilsega.part1.rar on Wupload.com Evilsega.part1.rar


o



Download bajo Evilsega.part3.rar for free on Filesonic.com Evilsega.part3.rar
Download bajo Evilsega.part4.rar for free on Filesonic.com Evilsega.part4.rar
Download bajo Evilsega.part1.rar for free on Filesonic.com Evilsega.part1.rar
Download bajo Evilsega.part2.rar for free on Filesonic.com Evilsega.part2.rar