Resultados 1 al 3 de 3

Tema: Breaking Bad T.4 [HDiTunes] [DUAL] [600MB] | FS US FJ UL FSO | 1Link

  1. #1
    Fecha de ingreso
    11 dic, 11
    Mensajes
    1,973
    Agradecido: 21
    Poder de reputación
    47

    Talking Breaking Bad T.4 [HDiTunes] [DUAL] [600MB] [13 13][UL LE SF DF] 1 Link

    Breaking Bad | Temporada 4 | Capitulos [13/13]



    Título: Breaking Bad
    Título Original: Breaking Bad
    Año: 2008
    País: USA
    Duración: 40 min.
    Género: Drama
    Creador: Vince Gilligan
    Productora: Gran Via Productions / High Bridge Productions / Sony Pictures Television



    Sinopsis: Breaking Bad se centra en Walter White (Bryan Cranston), un profesor de cincuenta años que enseña química en un instituto de Albuquerque (Nuevo México). Walter se convierte en criminal después de que le diagnostiquen un cáncer pulmonar y comienza a cocinar metanfetamina junto con su antiguo alumno Jesse Pinkman (Aaron Paul) con el fin de asegurar el futuro de su familia.



    Temporada: 4
    Nº de Capitulos: 13
    Rip: HDiTunes
    Formato: 480p
    Contenedor: AVI
    Audio: Castellano e Inglés
    Tamaño: 600MB
    Rippeo: Borju
    Format : AVI
    Format/Info : Audio Video Interleave
    File size : 629 MiB
    Duration : 47mn 9s
    Overall bit rate : 1 865 Kbps
    Writing application : VirtualDubMod 1.5.10.2 (build 2540/release)
    Writing library : VirtualDubMod build 2540/release

    Video
    ID : 0
    Format : MPEG-4 Visual
    Format profile : Advanced Simple@L5
    Format settings, BVOP : No
    Format settings, QPel : No
    Format settings, GMC : No warppoints
    Format settings, Matrix : Default (H.263)
    Codec ID : XVID
    Codec ID/Hint : XviD
    Duration : 47mn 9s
    Bit rate : 1 595 Kbps
    Width : 720 pixels
    Height : 400 pixels
    Display aspect ratio : 16:9
    Frame rate : 23.976 fps
    Color space : YUV
    Chroma subsampling : 4:2:0
    Bit depth : 8 bits
    Scan type : Progressive
    Compression mode : Lossy
    Bits/(Pixel*Frame) : 0.231
    Stream size : 538 MiB (86%)
    Writing library : XviD 1.2.1 (UTC 2008-12-04)

    Audio #1
    ID : 1
    Format : MPEG Audio
    Format version : Version 1
    Format profile : Layer 3
    Mode : Joint stereo
    Mode extension : MS Stereo
    Codec ID : 55
    Codec ID/Hint : MP3
    Duration : 47mn 9s
    Bit rate mode : Constant
    Bit rate : 128 Kbps
    Channel(s) : 2 channels
    Sampling rate : 48.0 KHz
    Compression mode : Lossy
    Stream size : 43.2 MiB (7%)
    Alignment : Aligned on interleaves
    Interleave, duration : 42 ms (1.00 video frame)
    Interleave, preload duration : 504 ms

    Audio #2
    ID : 2
    Format : MPEG Audio
    Format version : Version 1
    Format profile : Layer 3
    Mode : Joint stereo
    Mode extension : MS Stereo
    Codec ID : 55
    Codec ID/Hint : MP3
    Duration : 47mn 9s
    Bit rate mode : Constant
    Bit rate : 128 Kbps
    Channel(s) : 2 channels
    Sampling rate : 48.0 KHz
    Compression mode : Lossy
    Stream size : 43.2 MiB (7%)
    Alignment : Aligned on interleaves
    Interleave, duration : 42 ms (1.00 video frame)
    Interleave, preload duration : 504 ms


    Links Temporada 4

    Uploaded http://linksave.in/21374131004f09325847c6c

    LetItBit http://letitbit.net/folder/19090871/12349218

    ShareFlare http://pastebin.com/DcK0Tsjm

    DepositFiles http://depositfiles.com/folders/ZCQJ8IMQ4


    ☆ Temporada 1 en SD Aquí
    ☆ Temporada 2 en SD Aquí
    ☆ Temporada 3 en SD Aquí
    ☆ Temporada 4 en SD Aquí


    ★ Temporada 1 en HD Aquí
    ★ Temporada 2 en HD Aquí
    ★ Temporada 3 en HD Aquí
    ★ Temporada 4 en HD Aquí
    Todos mis aportes los subiré a Uploaded, si necesitas una cuenta premium en Up.to anímate y hazlo a través de mi link de referido http://ul.to/ref/2830534
    La contraseña de los aportes es "Nukety"

  2. #2
    Fecha de ingreso
    11 dic, 11
    Mensajes
    1,973
    Agradecido: 21
    Poder de reputación
    47

    Predeterminado Re: Breaking Bad T.4 [HDiTunes] [DUAL] [600MB] | FS US FJ UL FSO | 1Link


    . : : Temporada Completa : : .


  3. #3
    Fecha de ingreso
    11 dic, 11
    Mensajes
    1,973
    Agradecido: 21
    Poder de reputación
    47

    Predeterminado Re: Breaking Bad T.4 [HDiTunes] [DUAL] [600MB] | FS US FJ UL FSO | 1Link

    . : : Aporte Resubido y Añadidos Nuevos Servidores : : .


Temas similares

  1. Respuestas: 5
    Último mensaje: 18/01/2013, 09:55
  2. Respuestas: 3
    Último mensaje: 23/03/2012, 19:58
  3. Respuestas: 0
    Último mensaje: 07/12/2011, 11:13
  4. Respuestas: 0
    Último mensaje: 03/11/2011, 06:08

Etiquetas para este tema

Permisos de Publicación

  • No puedes crear nuevos temas
  • No puedes responder temas
  • No puedes subir archivos adjuntos
  • No puedes editar tus mensajes
  •